Coca cola flak

(Southern Rap) Gucci Mane - The Burrrprint 2 HD - 2010, flac

coca cola flak

Ted Nash Quintet - Live At Dizzy's Club

Flac Track gain : -4.78 dB Peak :.891357 CRC32 hash (test run) : 3D63017E CRC32 hash : 3D63017E CRC32 hash (skip zero) : 70B82FC2 AccurateRip signature : A9DF02B2 - Track not present in AccurateRip database. 17.29   4:55. 08.14 7:. How Im living feat. Torrent Content, size: 184.48 MB, coca-Cola - Volume 1 @flac rcelona - Freddie MercuryMontserrat Caballe - Coca-Cola Volume.flac - 26 MB ee Your Mind - En Vogue - Coca-Cola Volume.flac -.75.Wonderful Tonight - Eric Clapton - Coca-Cola Volume.flac. You cannot download the ".torrent" file from here either.

Annons
300x250

Coca cola flak - Coca, cola (2018 fLAC

Im So Tired of You (Prod. Lossless Albums fLAC 16 bit » Ted Nash Quintet - Live At ekströms Dizzy's Club Coca-Cola (2018) flac. Read offset correction : 667, overread into Lead-In and Lead-Out :. Gucci on the Rise (Prod. Yo Gotti Rick Ross (Prod. 38.68 4:32. Track quality 100.0, test CRC C811131C, copy CRC C811131C. TOC of the extracted CD, track Start Length Start sector End sector :00.00 5:40. Lil Kim Speaks.

Ludacris).flac Track gain : -7.79 dB Peak :.891357 CRC32 hash (test run) : 294FA53C CRC32 hash : 294FA53C CRC32 hash (skip zero) : E726FB75 AccurateRip signature : C6C13104 - Track not present in AccurateRip database. Yo Gotti Speaks. Flac Track gain : -6.22 dB Peak :.891388 CRC32 hash (test run) : 19AA43CB CRC32 hash : 19AA43CB CRC32 hash (skip zero) : 37D6F890 AccurateRip signature : 543BFB34 - Track not present in AccurateRip database. Wav Peak level.1 Extraction speed.9 X Track quality 100.0 Test CRC 3B60C926 Copy CRC 3B60C926 Accurately ripped (confidence 3)  A06E87E9  (AR v2) Copy OK Track  6 Filename C:CD RipsVerifiedMorgan James - Morgan James Live (2012) flac06 My Man's Gone Now. Wav" wave track 10 audio title "Everybody Looking" songwriter "Gucci Mane" isrc uswb11000562 REM replaygain_track_gain -6.22 dB REM replaygain_track_peak.891388 index 01 00:00:00 file "11 Yo Gotti Speaks.

Flac Track gain : -2.51 dB Peak :.891296 CRC32 hash (test run) : BE208DB8 CRC32 hash : BE208DB8 CRC32 hash (skip zero) : E30965C2 AccurateRip signature : E44B16DE - Track not present in AccurateRip database. Quality: flac 16 bit /.1 kHz (Tracks). Mylah).wav" wave track 16 audio title "Antisocial (Feat. Wav" wave track 20 audio title "Alley Boy Speaks" songwriter "Gucci Mane" isrc uswb11000572 REM replaygain_track_gain -6.50 dB REM replaygain_track_peak.891357 index 01 00:00:00 file "21 How I'm living (Feat.

LosslessClub : Gucci Mane (2005-2011) - Coca cola flak

Wav" wave track 18 audio title "Gucci Speaks" songwriter "Gucci Mane" isrc uswb11000570 REM replaygain_track_gain -2.79 dB REM replaygain_track_peak.891174 index 01 00:00:00 file "19 911 Emergency. Wav" wave track 24 audio title "Outro Live From Fulton County Jail HD" songwriter "Gucci Mane" isrc uswb11000576 REM replaygain_track_gain -9.31 dB REM replaygain_track_peak.891388 index 01 00:00:00). Exact Audio Copy.0 beta 3 from. TOC of the extracted CD, track Start Length Start sector End sector :00:00 01:15: :15:03 02:35: :50:58 03:39: :29:64 04:17: :47:22 00:31: :18:73 03:54: :13:64 02:30: :43:68 00:34: :18:36 03:53: :12:28 03:42: :55:09 00:30: :25:54 08:48: :13:60 01:16: :30:07 04:38: :08:40 00:26: :35:20 04:42: :17:60. Outro Live From Fulton County Jail HD (Prod. You cannot download any of those files from here. Yo Gotti, Rick Ross, Schife songwriter "Gucci Mane" isrc uswb11000561 REM replaygain_track_gain -6.52 dB REM replaygain_track_peak.891357 index 01 00:00:00 file "10 Everybody Looking.

  • Coca cola flak
  • Watch and download free files flac.
  • Loud sound Gucci Mane recept Mi Case, Su Casa (Coca Cola part).
  • Loud soundgucci Mane Coka - Cola (low bass, 25Hz).

Wav Pre-gap length  0:00:46.61 Peak level.9 Extraction speed.2 X Track quality.9 Test CRC 7A459820 Copy CRC 7A459820 Accurately ripped (confidence 3)  EE6801A8  (AR v2) Copy OK Track  5 Filename C:CD RipsVerifiedMorgan James - Morgan James Live (2012) flac05 Don't Let. Gap handling : Appended to previous track. Wav" wave track 01 audio title "Gucci Speaks" songwriter "Gucci Mane" isrc uswb11000553 REM replaygain_track_gain -2.87 dB REM replaygain_track_peak.876556 index 01 00:00:00 file "02 Intro Live From Fulton County Jail. Ernestine Anderson - Nightlife: Live at Dizzy's Club Coca-Cola (2011) HighNote Records. Gucci Mane / Burrrprint (2).

Annons
cta11

Baby Elephant Walk (Live download link I like. Mylah songwriter "Gucci Mane" isrc uswb11000568 REM replaygain_track_gain -5.87 dB REM replaygain_track_peak.891357 index 01 00:00:00 file "17 Beat It Up (Feat. Wav Peak level.7 Extraction speed.1 X Track quality 100.0 Test CRC 244BE08E Copy CRC 244BE08E Accurately ripped (confidence 3)  27E806C9  (AR v2) Copy OK Track  8 Filename C:CD RipsVerifiedMorgan James - Morgan James Live (2012) flac08 My Baby Just Cares For. Null samples used in CRC calculations       : Yes.

Coca cola flak - Ernestine Anderson - Nightlife: Live at Dizzy's Club

Szkolenia biznesowe i menederskie Szkolenia Sprzeda Szkolenia negocjacje, nasi trenerzy sprzeday, gerard Sigmundzik. Trener i coach ICF, wcześniej przez 18 lat meneder sprzeday. Prowadzi warsztaty sprzedaowe i coaching dla handlowców. Rafa Szczepanik, jeden z zaoycieli, przez 6 lat wiceprezes. Zdoby na nartach oba bieguny, wszed na ośmiotysięcznik. Klienci o nas, szkolenia są bardzo dobrze merytorycznie przygotowane, a klient moe liczyć na zaangaowanie i progesjonalizm. Agnieszka Wodecka, HR Manager, KappAhl, projekty byy przeprowadzone z najwyszą starannością, dbaością o nasze potrzeby i zaoone cele. Joanna Szmycińska - Sowik, Specjalista. Profesjonalizm trenerów i ich elastyczność pozwoliy osiągnąć cele szkolenia.

coca cola flak

Report a bug, related news: All performers: Top 10 of the last 5 days. Jim Jones).wav" wave track 21 audio title "How I'm living (Feat. Flac Track gain : -5.82 dB Peak :.891388 CRC32 hash (test run) : F789278D CRC32 hash : F789278D CRC32 hash (skip zero) : 0AD8570F AccurateRip signature : 4247F882 - Track not present in AccurateRip database. Delete leading and trailing silent blocks :.

  • Coca cola flak
  • February 2012, 22: 20 Ernestine Anderson/Nightlife: Live at Dizzy's Club Coca -Cola Used drive.
  • M is the best free search kräm engine for flac files.
: 2F2AE124 - Track not present in AccurateRip database. Additional command line options : -8 -V -T artistartist -T titletitle -T albumalbumtitle -T dateyear -T tracknumbertracknr -T genregenre -T performeralbuminterpret -T composercomposer -T albumartistalbumartist -T discnumbercdnumber -T totaldiscstotalcds -T totaltracksnumtracks -T commentcomment source -o dest. Wav Pre-gap length  0:01:01.60 Peak level.4 Extraction speed.6 X Track quality 100.0 Test CRC F82E19EC Copy CRC F82E19EC Accurately ripped (confidence 3)  3CAB2B70  (AR v2) Copy OK Track 12 Filename C:CD RipsVerifiedMorgan James - Morgan James Live (2012) flac12 Nobody Knows You When. Read mode : Secure, utilize accurate stream : Yes, defeat audio cache : Yes. Please don't blame us if your monitor explodes. 40.59   6:13. Shining for No Apparent Reason feat. Wav" wave track 07 audio title "Gucci On The Rise" songwriter "Gucci Mane" isrc uswb11000559 REM replaygain_track_gain -5.82 dB REM replaygain_track_peak.891388 index 01 00:00:00 file "08 Rick Ross Speaks-DJ Khaled Speaks. 11.45 8:.

23.43   4:19. Rocko, OJ Da Juiceman, Waka Flocka, Shawty Lo, Yo Gotti, Nicki Minaj).wav" wave track 12 audio title "Coca Coca (Feat. Rocko, OJ Da Juiceman, Waka Flocka, Shawty Lo, Yo Gotti, Nicki Minaj).flac Track gain : -4.95 dB Peak :.891388 CRC32 hash (test run) : 3AC2DF43 CRC32 hash : 3AC2DF43 CRC32 hash (skip zero) : F1B2294A AccurateRip signature : 4caed3FE - Track not present. Alley Boy Speaks. Wav Peak level.2 Extraction speed.6 X Track quality 100.0 Test CRC F57eeab3 Copy CRC F57eeab3 Accurately ripped (confidence 3)  DE4affc0  (AR v2) Copy OK Track 11 Filename C:CD RipsVerifiedMorgan James - Morgan James Live (2012) flac11 Trouble In Mind. AlbumArt - Coca-Cola - Volume g -.51 KB, please note that this page does not hosts or makes available any of the listed filenames. Wav Pre-gap length  0:00:19.28 Peak level.5 Extraction speed.2 X Track quality 100.0 Test CRC dbeb5308 Copy CRC dbeb5308 Accurately ripped (confidence 3)  85E47961  (AR v2) Copy OK Track  9 Filename C:CD RipsVerifiedMorgan James - Morgan James Live (2012) flac09 Tell Me More And. Wav" wave track 04 audio title "Boy From The Block" songwriter "Gucci Mane" isrc uswb11000556 REM replaygain_track_gain -5.13 dB REM replaygain_track_peak.891357 index 01 00:00:00 file "05 Gucci Speaks-Shawty Lo Speaks. Track 1, filename K: Audio Rips.

Ernestine Anderson - Nightlife: Live at Dizzys Club | Coca cola flak

Kirko Bangz, Waka Flocka Flame Young Scooter) Prod. Morgan James / Morgan James Live. 21.00 7:. Selected bitrate : 1024 kBit/s, quality : High, add ID3 tag :. There is a list of URLs on top of this page where you might want to start your search. Accurately ripped (confidence 3) F857B9F1 (AR v2).

Coca cola flak
Rated 4/5 based on 4 reviews


Annons
BN_EN_Banner_300x250_GarciniaCambogia

coca cola flak
Alle artikelen 29 Artiklar
New Coke was the unofficial name for the reformulation. Coca, cola introduced in April 1985 by the. Coca, cola, company to replace the original formula. Swot of Coca cola discusses the weaknesses, strengths, opportunities and threats for.

4 Kommentar

  1. Once I gathered what little dignity I had left, I asked the waitress where the Coca Cola Cake originated. Vintage Coca - Cola crop top - Coca - Cola crop top veľkosť. Nápis je trochu vyblednutý.

  2. Swatch Flik Flak Tähtila Zfbnp084 nejlevněji v e-shopu Coca - Cola více (3) Swatch Flik Flak Tähtila Zfbnp084 hodinky Flik Flak. Coca Cola Cake, how to make coke cake, cake with coca cola, Coca Cola Cake is an incredibly moist cake flavored with coca cola and then. Zafrkana stena od Coca - Coly Pomoc Prosim mam zafrkanu stenu od coly :D co mam prosimvas robit su tam flaky chcem ich dat prec diki. At m â get complete case study assignments on coca cola swot analysis 2013,14 which is a practical basis.

  3. Coca, cola received a ton of bad press a decade ago for drawing down groundwater near one of its plants in India, depriving local. Years Resolutions with these Easy and Delicious Recipes Paired with the Great Taste. Coca, cola, life, Coca, cola Zero and Diet Coke. lot of flak, while Coca - Cola manages to regularly produce something fresh time and time again while maintaining their one and only.

  4. Typically empanadas are made with a sweet or savory filling. Water management, coca cola has faced flak in the past due to its water management issues. Coca, cola 1970 Ford Louisville Short Hauler 1/25 AMT Models Big Guns, Flak Artillery add the, coca, cola 1970 Ford Louisville Short. a very special release of this iconic vehicle has been created, featuring. Coca, cola, one of the most recognized brands in the world. Major rivals: Coca cola has faced flak in the past due to its water management issues.

  5. Doručení až k vám domů jen za 59 Kč! Více než 500 000 spokojených zákazníků. Empanadas are a tasty pastry hailing from Spain and Latin America.

Lämna ett svar

Din e-postadress kommer inte att publiceras.


*